Latest Video Upload : MOV – HEVC/H.265 4320p 8K UltraHD, free sample download, plays on 8K TV e.g. Samsung QN800A series

MOV – HEVC/H.265 4320p 8K UltraHD, free sample download, plays on 8K TV e.g. Samsung QN800A series
Visit https://oliverx.link/samples to download the original file for free.
This file plays well on
– 8K TVs via USB, like the Samsung QN800A series
– Microsoft Movies & TV 10.21 (with HEVC extension)
– Apple QuickTime Player 10.5
– Video LAN VLC 3.0

Created as
– 7680×4320 ProRes 422 HQ with Apple Motion 5.6 on Mac Mini M1
– Based on a free template from motionvfx.com
– Video footage shot on iPhone 12 Pro in Dolby Vision
– Audio track “Wild Animals” from Nero Video 2022
– Encoded to with Shutter Encoder 15.5 utilizing FFMPEG
– Burn in subtitle for resolution/codec/container info

General
Complete name : V606 MOV – HEVC 4320p 24fps 8bit – AAC2.0.mov
Format : MPEG-4
Format profile : QuickTime
Codec ID : qt 0000.02 (qt )
File size : 22.6 MiB
Duration : 22 s 0 ms
Overall bit rate mode : Variable
Overall bit rate : 8 598 kb/s
Encoded date : UTC 2021-11-13 13:13:27
Tagged date : UTC 2021-11-13 13:13:27
Writing application : Lavf59.5.100

Video
ID : 1
Format : HEVC
Format/Info : High Efficiency Video Coding
Format profile : Main@L6@Main
Codec ID : hvc1
Codec ID/Info : High Efficiency Video Coding
Duration : 22 s 0 ms
Bit rate : 8 350 kb/s
Width : 7 680 pixels
Height : 4 320 pixels
Display aspect ratio : 16:9
Frame rate mode : Constant
Frame rate : 24.000 FPS
Color space : YUV
Chroma subsampling : 4:2:0
Bit depth : 8 bits
Scan type : Progressive
Bits/(Pixel*Frame) : 0.010
Stream size : 21.9 MiB (97%)
Writing library : x265 3.5+dev-681c05e83:[Mac OS X][clang 12.0.5][32 bit] 8bit+10bit+12bit
Encoding settings : cpuid=2 / frame-threads=3 / wpp / no-pmode / no-pme / no-psnr / no-ssim / log-level=2 / input-csp=1 / input-res=7680×4320 / interlace=0 / total-frames=0 / level-idc=0 / high-tier=1 / uhd-bd=0 / ref=3 / no-allow-non-conformance / no-repeat-headers / annexb / no-aud / no-hrd / info / hash=0 / no-temporal-layers / open-gop / min-keyint=24 / keyint=250 / gop-lookahead=0 / bframes=4 / b-adapt=2 / b-pyramid / bframe-bias=0 / rc-lookahead=20 / lookahead-slices=8 / scenecut=40 / hist-scenecut=0 / radl=0 / no-splice / no-intra-refresh / ctu=64 / min-cu-size=8 / no-rect / no-amp / max-tu-size=32 / tu-inter-depth=1 / tu-intra-depth=1 / limit-tu=0 / rdoq-level=0 / dynamic-rd=0.00 / no-ssim-rd / signhide / no-tskip / nr-intra=0 / nr-inter=0 / no-constrained-intra / strong-intra-smoothing / max-merge=3 / limit-refs=1 / no-limit-modes / me=1 / subme=2 / merange=57 / temporal-mvp / no-frame-dup / no-hme / weightp / no-weightb / no-analyze-src-pics / deblock=0:0 / sao / no-sao-non-deblock / rd=3 / selective-sao=4 / early-skip / rskip / no-fast-intra / no-tskip-fast / no-cu-lossless / b-intra / no-splitrd-skip / rdpenalty=0 / psy-rd=2.00 / psy-rdoq=0.00 / no-rd-refine / no-lossless / cbqpoffs=0 / crqpoffs=0 / rc=abr / bitrate=8000 / qcomp=0.60 / qpstep=4 / stats-write=0 / stats-read=0 / ipratio=1.40 / pbratio=1.30 / aq-mode=2 / aq-strength=1.00 / cutree / zone-count=0 / no-strict-cbr / qg-size=32 / no-rc-grain / qpmax=69 / qpmin=0 / no-const-vbv / sar=1 / overscan=0 / videoformat=5 / range=0 / colorprim=1 / transfer=1 / colormatrix=1 / chromaloc=0 / display-window=0 / cll=0,0 / min-luma=0 / max-luma=255 / log2-max-poc-lsb=8 / vui-timing-info / vui-hrd-info / slices=1 / no-opt-qp-pps / no-opt-ref-list-length-pps / no-multi-pass-opt-rps / scenecut-bias=0.05 / hist-threshold=0.03 / no-opt-cu-delta-qp / no-aq-motion / no-hdr10 / no-hdr10-opt / no-dhdr10-opt / no-idr-recovery-sei / analysis-reuse-level=0 / analysis-save-reuse-level=0 / analysis-load-reuse-level=0 / scale-factor=0 / refine-intra=0 / refine-inter=0 / refine-mv=1 / refine-ctu-distortion=0 / no-limit-sao / ctu-info=0 / no-lowpass-dct / refine-analysis-type=0 / copy-pic=1 / max-ausize-factor=1.0 / no-dynamic-refine / no-single-sei / no-hevc-aq / no-svt / no-field / qp-adaptation-range=1.00 / no-scenecut-aware-qpconformance-window-offsets / right=0 / bottom=0 / decoder-max-rate=0 / no-vbv-live-multi-pass
Encoded date : UTC 2021-11-13 13:13:27
Tagged date : UTC 2021-11-13 13:13:27
Color range : Limited
Color primaries : BT.709
Transfer characteristics : BT.709
Matrix coefficients : BT.709
Codec configuration box : hvcC

Audio
ID : 2
Format : AAC LC
Format/Info : Advanced Audio Codec Low Complexity
Codec ID : mp4a-40-2
Duration : 22 s 0 ms
Source duration : 22 s 21 ms
Source_Duration_LastFrame : -16 ms
Bit rate mode : Variable
Bit rate : 241 kb/s
Maximum bit rate : 256 kb/s
Channel(s) : 2 channels
Channel layout : L R
Sampling rate : 48.0 kHz
Frame rate : 46.875 FPS (1024 SPF)
Compression mode : Lossy
Stream size : 649 KiB (3%)
Source stream size : 649 KiB (3%)
Title : Core Media Audio
Default : Yes
Alternate group : 1
Encoded date : UTC 2021-11-13 13:13:27
Tagged date : UTC 2021-11-13 13:13:27
mdhd_Duration : 22000

Leave a Reply

Fill in your details below or click an icon to log in:

WordPress.com Logo

You are commenting using your WordPress.com account. Log Out /  Change )

Twitter picture

You are commenting using your Twitter account. Log Out /  Change )

Facebook photo

You are commenting using your Facebook account. Log Out /  Change )

Connecting to %s