Download free GoPro HERO3 Black MP4 AVC/H.264 Ultra HD 4k 2160p 15fps AAC sample

To go to the download, select sample files on top

General
Complete name : Y2012 GoPro HERO3 Black – AVC 2160p 15fps 8bit – AAC2.0.MP4
Format : MPEG-4
Format profile : JVT
Codec ID : avc1 (avc1/isom)
File size : 71.7 MiB
Duration : 16 s 683 ms
Overall bit rate mode : Variable
Overall bit rate : 36.1 Mb/s
Encoded date : UTC 2013-10-03 15:32:38
Tagged date : UTC 2013-10-03 15:32:38
AMBA :

Video
ID : 1
Format : AVC
Format/Info : Advanced Video Codec
Format profile : High@L5.1
Format settings : CABAC / 1 Ref Frames
Format settings, CABAC : Yes
Format settings, Reference frames : 1 frame
Format settings, GOP : M=1, N=8
Codec ID : avc1
Codec ID/Info : Advanced Video Coding
Duration : 16 s 683 ms
Bit rate mode : Variable
Bit rate : 35.7 Mb/s
Maximum bit rate : 35.0 Mb/s
Width : 3 840 pixels
Height : 2 160 pixels
Display aspect ratio : 16:9
Frame rate mode : Constant
Frame rate : 14.985 (15000/1001) FPS
Color space : YUV
Chroma subsampling : 4:2:0
Bit depth : 8 bits
Scan type : Progressive
Bits/(Pixel*Frame) : 0.287
Stream size : 70.9 MiB (99%)
Title : GoPro AVC
Language : English
Encoded date : UTC 2013-10-03 15:32:38
Tagged date : UTC 2013-10-03 15:32:38
Color range : Full
Color primaries : BT.709
Transfer characteristics : BT.709
Matrix coefficients : BT.709
Codec configuration box : avcC

Audio
ID : 2
Format : AAC LC
Format/Info : Advanced Audio Codec Low Complexity
Codec ID : mp4a-40-2
Duration : 16 s 683 ms
Bit rate mode : Constant
Bit rate : 128 kb/s
Channel(s) : 2 channels
Channel layout : L R
Sampling rate : 48.0 kHz
Frame rate : 46.875 FPS (1024 SPF)
Compression mode : Lossy
Stream size : 261 KiB (0%)
Title : GoPro AAC
Language : English
Encoded date : UTC 2013-10-03 15:32:38
Tagged date : UTC 2013-10-03 15:32:38