Download free WMV VC-1 FullHD 1080p 25fps WMA sample

To go to the download, select sample files on top

General
Complete name : V202 WMV – VC-1 1080p 25fps 8bit – WMA2.0.wmv
Format : Windows Media
File size : 6.29 MiB
Duration : 31 s 579 ms
Overall bit rate mode : Variable
Overall bit rate : 1 671 kb/s
Maximum Overall bit rate : 12.5 Mb/s
Encoded date : UTC 2020-08-22 15:05:18.880

Video
ID : 2
Format : VC-1
Format profile : MP@HL
Codec ID : WMV3
Codec ID/Info : Windows Media Video 9
Codec ID/Hint : WMV3
Description of the codec : Windows Media Video 9 – Professional
Duration : 31 s 560 ms
Bit rate mode : Variable
Bit rate : 7 000 kb/s
Width : 1 920 pixels
Height : 1 080 pixels
Display aspect ratio : 16:9
Frame rate : 25.000 FPS
Bit depth : 8 bits
Compression mode : Lossy
Bits/(Pixel*Frame) : 0.135
Stream size : 26.3 MiB
Language : English (United States)

Audio
ID : 1
Format : WMA
Format version : Version 2
Codec ID : 161
Codec ID/Info : Windows Media Audio
Description of the codec : Windows Media Audio 9.2 – 320 kbps, 44 kHz, stereo (A/V) 2-pass CBR
Duration : 31 s 579 ms
Bit rate mode : Constant
Bit rate : 320 kb/s
Channel(s) : 2 channels
Sampling rate : 44.1 kHz
Bit depth : 16 bits
Stream size : 1.20 MiB (19%)
Language : English (United States)